#TITLE:飞翔;
#SUBTITLE:;
#ARTIST:PM.TINA;
#TITLETRANSLIT:;
#SUBTITLETRANSLIT:;
#ARTISTTRANSLIT:;
#CREDIT:;
#BANNER:10_logo.jpg;
#BACKGROUND:10_bg.jpg;
#LYRICSPATH:;
#CDTITLE:Lan.png;
#MUSIC:10.mp3;
#OFFSET:-0.060;
#SAMPLESTART:100.000;
#SAMPLELENGTH:12.000;
#SELECTABLE:YES;
#BPMS:0.000=90.000;
#STOPS:;
#BGCHANGES:;
// cache tags:
#FIRSTBEAT:4.000;
#LASTBEAT:251.500;
#SONGFILENAME:Songs/SDO 2/10/10.sm;
#HASMUSIC:1;
#HASBANNER:1;
#MUSICLENGTH:169.750;
// end cache tags

//---------------dance-single - sky----------------
#NOTES:
     dance-single:
     sky:
     Hard:
     9:
     0.651,0.852,0.642,0.047,0.654,632.000,109.000,8.000,0.000,23.000:

0000
0000
0000
0000
,
1100
0011
0110
0110
,
1100
0101
0011
0110
,
1100
0001
0100
0001
,
1000
0000
0001
0000
0001
0100
1000
0100
,
0001
0000
0000
0000
1000
0100
0000
0000
0010
0001
0000
0000
0100
0010
0000
0000
,
1000
0100
0000
0000
0100
0010
0000
0000
1000
0001
0000
0000
0010
0100
0000
0000
,
1000
0100
0000
0000
0010
0001
0000
0000
0100
1000
0000
0000
0010
0001
0000
0000
,
0100
0010
0000
0000
1000
0100
0000
0000
0001
0010
0001
0000
1000
0000
1000
0000
,
0111
0000
0011
0000
1000
0010
0110
0000
,
1000
0000
0101
0000
0100
0001
1000
0000
,
0001
0000
0110
0000
0001
0100
1010
0100
,
0001
0100
0011
1000
0010
0001
0110
0100
,
1101
0000
0011
0100
1000
0001
0110
0010
,
1000
0000
0110
0000
0010
1000
0011
0100
,
0001
0000
0101
0010
1000
0010
0001
0000
,
1100
0001
0100
0010
0100
0001
0010
0100
,
1111
0000
1000
0010
0100
0001
0010
1000
0010
0100
0001
0010
0001
0100
0010
1000
,
0111
0000
1000
0010
0001
0100
0010
1000
0010
0001
0100
0010
0100
0001
0010
1000
,
1110
0010
0100
0001
1000
0100
1000
0001
0010
0100
0000
0100
0000
1000
0100
0001
,
0101
0000
0011
0000
0100
0000
0110
0000
1000
0000
0110
0000
0100
0010
0001
0010
,
1110
0010
0100
0001
1000
0100
1000
0001
0010
0100
0001
0100
0001
1000
0100
0001
,
1110
0010
0001
0100
0010
1000
0100
1000
0001
0010
0100
0001
0010
0001
1000
0100
,
0111
0000
0000
0000
0010
1000
0000
0010
0001
0010
0100
1000
0010
0001
0010
0100
,
1100
0100
0010
0001
0010
1000
0010
0001
0010
0100
0010
0001
0100
1000
0100
0010
,
1111
1000
0100
0010
0101
0010
0100
1000
1100
0001
0010
0100
1010
0100
0010
0001
,
0110
1000
0100
0010
0110
0001
0010
0100
0110
1000
0001
0100
0110
0010
0100
0010
,
1001
1000
0001
0010
0110
0001
1000
0100
0011
1000
0001
0100
1010
0010
0100
0010
,
1001
0000
0100
0000
0011
0000
0100
0000
1010
0100
0001
0010
0001
0010
0001
0010
,
0111
1000
0100
0010
0101
0010
0100
1000
1100
0001
0010
0100
1010
0100
0010
0001
,
0110
1000
0100
0010
0110
0001
0010
0100
0110
1000
0001
0100
0110
0010
0100
0010
,
1001
1000
0001
0010
0110
0001
1000
0100
0011
1000
0001
0100
1010
0010
0100
0010
,
1001
0000
0100
0000
0011
0000
1000
0000
0110
0001
0010
0100
0010
0100
0010
0100
,
1000
0100
1000
0010
0001
0010
0100
1000
0100
0010
0001
0010
0001
0010
0001
0100
,
1000
0100
0010
0100
0001
1000
0001
0010
0100
0010
0001
1000
0010
0100
0010
1000
,
0100
0010
0100
0010
0001
0010
0100
1000
0100
0010
0001
0010
0001
0010
0001
0100
,
1000
0100
0010
0100
0001
1000
0001
0010
0100
0010
0001
1000
0001
1000
0001
1000
,
0100
0001
0010
0100
0001
0100
1000
0100
0010
0001
0100
0001
0100
0001
0100
1000
,
0001
0010
0100
0001
0100
1000
0001
0010
0100
0001
0110
0000
0011
0000
0011
0000
,
0011
1000
0100
0001
0010
1000
0001
0010
1000
0000
1100
0000
0101
0000
0101
0000
,
1101
0010
0100
0010
0001
0010
0100
1000
0100
0010
0001
0010
0100
1000
0100
0010
,
1011
1000
1000
0010
0011
0100
1000
0010
0011
0001
0100
0010
0111
1000
1000
0100
,
0011
0010
0010
0100
1110
0010
0010
0100
0011
0001
0010
0100
0011
0100
1000
0100
,
1011
0100
0010
1000
0110
0001
0010
0001
1010
0010
0001
0100
0110
1000
0100
0010
,
1111
1100
0010
0101
1000
0101
0010
0100
,
1111
0000
0010
0000
0101
0000
0100
0000
0001
0000
0110
0000
0000
0110
1000
0010
,
0101
1000
0001
0100
0001
0100
0101
0100
,
1011
0000
0100
0000
0001
0000
0000
1010
1010
0000
0100
0000
0101
0000
0010
0000
,
1110
0000
0100
0000
0001
0000
0100
0000
0010
0000
0100
0000
1000
0100
0010
0001
,
1111
0001
1000
0001
,
1100
0001
0010
1000
,
1000
0100
1000
0010
0001
0010
0001
0100
,
1000
0100
0001
0100
1000
0010
0001
0100
,
1100
0022
0000
1033
,
0011
2200
0000
3300
,
0011
0000
2200
0000
0000
0000
3301
0010
,
0001
0000
2200
0000
0000
0000
3301
0010
,
0001
1000
0100
0001
0010
1000
0100
0001
,
1000
0100
0000
0000
0010
0001
0000
0000
0100
0010
0000
0000
0100
1000
0000
0000
,
0010
0001
0000
0000
1000
0100
0000
0000
0010
0001
0000
0000
0100
0010
0000
0000
,
0100
1000
0000
0000
0010
0001
0000
0000
1000
0100
0000
0000
0001
0010
0000
0000
,
1000
0010
0001
0100
1000
0010
0001
0010
,
1000
0010
0001
0100
0010
0100
1000
0010
;
